Download Mission Mangal 2019 Hindi 1080p WEB-DL x264 AAC { TaRa } mkv torrent - GloDLS
Torrent Details For "Mission Mangal 2019 Hindi 1080p WEB-DL x264 AAC { TaRa } mkv"

Mission Mangal 2019 Hindi 1080p WEB-DL x264 AAC { TaRa } mkv

To download this torrent, you need a BitTorrent client: Vuze or BTGuard
Download this torrent
Download using Magnet Link

Health:
Seeds: 1,447
Leechers: 796
Completed: 5,910 
Last Checked: 12-10-2019 13:42:39

Uploader Reputation points : 496
External: Torrent






Write a Review for the Uploader:   0   Say Thanks with one good review:
Share on Facebook


Details
Name:Mission Mangal 2019 Hindi 1080p WEB-DL x264 AAC { TaRa } mkv
Description:

Mission Mangal 2019 Hindi 1080p WEB-DL x264 AAC { TaRa }.mkv


===================================================================
General
Complete name               : Mission Mangal 2019 Hindi 1080p WEB-DL x264 AAC { TaRa }.mkv
Format                      : Matroska
Format version              : Version 4
File size                   : 1.44 GiB
Duration                    : 2 h 10 min
Overall bit rate            : 1 578 kb/s
===================================================================
Video
ID                          : 1
Format                      : AVC
Format/Info                 : Advanced Video Codec
Format profile              : [email protected]
Format settings             : CABAC / 6 Ref Frames
Format settings, CABAC      : Yes
Format settings, Reference  : 6 frames
Format settings, GOP        : M=5, N=48
Codec ID                    : V_MPEG4/ISO/AVC
Duration                    : 2 h 10 min
Bit rate                    : 1 512 kb/s
Width                       : 1 920 pixels
Height                      : 1 080 pixels
Display aspect ratio        : 16:9
Frame rate mode             : Constant
Frame rate                  : 24.000 FPS
Color space                 : YUV
Chroma subsampling          : 4:2:0
Bit depth                   : 8 bits
Scan type                   : Progressive
Bits/(Pixel*Frame)          : 0.030
Stream size                 : 1.38 GiB (96%)
Title                       : .....::::: TaRa :::::....
Language                    : Hindi
Default                     : Yes
Forced                      : No
===================================================================
Audio
ID                          : 2
Format                      : AAC LC
Format/Info                 : Advanced Audio Codec Low Complexity
Codec ID                    : A_AAC-2
Duration                    : 2 h 10 min
Bit rate                    : 64.4 kb/s
Channel(s)                  : 2 channels
Channel layout              : L R
Sampling rate               : 48.0 kHz
Frame rate                  : 46.875 FPS (1024 SPF)
Compression mode            : Lossy
Stream size                 : 60.1 MiB (4%)
Title                       : .....::::: TaRa :::::....
Language                    : Hindi
Default                     : Yes
Forced                      : No
===================================================================

























YouTube Video:
Category:Movies
Language:Hindi  Hindi
Total Size:1.44 GB
Info Hash:23E0655A2C038AA59A543B8A44AC8AB8027F9108
Added By:SkTaRa Verified UploaderMovie Pirate
Date Added:2019-10-10 14:49:20
Torrent Status:Torrent Verified


Ratings:Not Yet Rated (Log in to rate it)


Tracker:
udp://tracker.coppersurfer.tk:6969/announce

This Torrent also has backup trackers
URLSeedersLeechersCompleted
udp://tracker.coppersurfer.tk:6969/announce000
udp://tracker.leechers-paradise.org:6969/announce237136382
udp://bt.xxx-tracker.com:2710/announce000
udp://tracker.internetwarriors.net:1337/announce000
udp://tracker.openbittorrent.com:80/announce1708710
udp://explodie.org:6969/announce12668575
udp://tracker.opentrackr.org:1337/announce159941,056
udp://tracker.tiny-vps.com:6969/announce15985694
udp://open.demonii.si:1337/announce14173594
udp://tracker.torrent.eu.org:451/announce15172641
udp://tracker.pirateparty.gr:6969/announce000
udp://ipv4.tracker.harry.lu:80/announce27250
udp://tracker.cyberia.is:6969/announce12772697
udp://9.rarbg.to:2750/announce9660962
udp://denis.stalker.upeer.me:6969/announce5424299


File List: 





Comments
No comments still posted