Download Batla House 2019 HDrip 720p Hindi x265 HEVC DDP 5.1 ESub - {Team Shadow} torrent - GloDLS
Torrent Details For "Batla House 2019 HDrip 720p Hindi x265 HEVC DDP 5.1 ESub - {Team Shadow}"

Batla House 2019 HDrip 720p Hindi x265 HEVC DDP 5.1 ESub - {Team Shadow}

To download this torrent, you need a BitTorrent client: Vuze or BTGuard
Download this torrent
Download using Magnet Link

Health:
Seeds: 141
Leechers: 9
Completed: 1,946 
Last Checked: 16-10-2019 21:53:21

Uploader Reputation points : 41
External: Torrent






Write a Review for the Uploader:   0   Say Thanks with one good review:
Share on Facebook


Details
Name:Batla House 2019 HDrip 720p Hindi x265 HEVC DDP 5.1 ESub - {Team Shadow}
Description:

Batla House 2019 HDrip 720p Hindi x265 HEVC DDP 5.1 ESub - {Team Shadow}








Movie Info


File size : 1.71 GB
Duration : 2h 19mn 10sc
IMDB :https://www.imdb.com/title/tt8869978/
Storyline : Police conduct a raid on a house in Delhi, India, to search for terrorist suspects.
Directors:  Nikkhil Advani
Stars :  John Abraham, Mrunal Thakur, Nora Fatehi
Release date : 15th August 2019 (India)
File size : 1.71 GB
Encoded by Team Shàdów (Shàdów)


Credit goes to mkvcinemas





General
Unique ID                                : 149959601182107384726905807170789493620 (0x70D12B2BC2F751CBB3E1D972BA80CB74)
Complete name                            :Batla House 2019 HDrip 720p Hindi HEVC. DDP 5.1 ESub - {Team Shadow}.mkv
Format                                   : Matroska
Format version                           : Version 4
File size                                : 1.72 GiB
Duration                                 : 2 h 19 min
Overall bit rate                         : 1 771 kb/s
Writing application                      : HandBrake 1.2.2 2019022300
Writing library                          : Lavf58.20.100
ErrorDetectionType                       : Per level 1

Video
ID                                       : 1
Format                                   : HEVC
Format/Info                              : High Efficiency Video Coding
Format profile                           : Main [email protected]@Main
Codec ID                                 : V_MPEGH/ISO/HEVC
Duration                                 : 2 h 19 min
Bit rate                                 : 1 096 kb/s
Width                                    : 1 280 pixels
Height                                   : 720 pixels
Display aspect ratio                     : 2.35:1
Frame rate mode                          : Constant
Frame rate                               : 24.000 FPS
Color space                              : YUV
Chroma subsampling                       : 4:2:0
Bit depth                                : 10 bits
Bits/(Pixel*Frame)                       : 0.050
Stream size                              : 1.06 GiB (62%)
Writing library                          : x265 2.9:[Windows][GCC 8.2.0][64 bit] 10bit
Encoding settings                        : cpuid=1111039 / frame-threads=2 / numa-pools=4 / wpp / no-pmode / no-pme / no-psnr / no-ssim / log-level=2 / input-csp=1 / input-res=1280x720 / interlace=0 / total-frames=0 / level-idc=0 / high-tier=1 / uhd-bd=0 / ref=3 / no-allow-non-conformance / no-repeat-headers / annexb / no-aud / no-hrd / info / hash=0 / no-temporal-layers / open-gop / min-keyint=24 / keyint=240 / gop-lookahead=0 / bframes=4 / b-adapt=0 / b-pyramid / bframe-bias=0 / rc-lookahead=15 / lookahead-slices=4 / scenecut=40 / radl=0 / no-intra-refresh / ctu=64 / min-cu-size=8 / no-rect / no-amp / max-tu-size=32 / tu-inter-depth=1 / tu-intra-depth=1 / limit-tu=0 / rdoq-level=0 / dynamic-rd=0.00 / no-ssim-rd / signhide / no-tskip / nr-intra=0 / nr-inter=0 / no-constrained-intra / strong-intra-smoothing / max-merge=2 / limit-refs=3 / no-limit-modes / me=1 / subme=2 / merange=57 / temporal-mvp / weightp / no-weightb / no-analyze-src-pics / deblock=0:0 / sao / no-sao-non-deblock / rd=2 / no-early-skip / rskip / fast-intra / no-tskip-fast / no-cu-lossless / no-b-intra / no-splitrd-skip / rdpenalty=0 / psy-rd=2.00 / psy-rdoq=0.00 / no-rd-refine / no-lossless / cbqpoffs=0 / crqpoffs=0 / rc=crf / crf=22.0 / qcomp=0.60 / qpstep=4 / stats-write=0 / stats-read=0 / ipratio=1.40 / pbratio=1.30 / aq-mode=1 / aq-strength=1.00 / cutree / zone-count=0 / no-strict-cbr / qg-size=32 / no-rc-grain / qpmax=69 / qpmin=0 / no-const-vbv / sar=255 / sar-width / : / sar-height=45:34 / overscan=0 / videoformat=5 / range=0 / colorprim=1 / transfer=1 / colormatrix=1 / chromaloc=0 / display-window=0 / max-cll=0,0 / min-luma=0 / max-luma=1023 / log2-max-poc-lsb=8 / vui-timing-info / vui-hrd-info / slices=1 / no-opt-qp-pps / no-opt-ref-list-length-pps / no-multi-pass-opt-rps / scenecut-bias=0.05 / no-opt-cu-delta-qp / no-aq-motion / no-hdr / no-hdr-opt / no-dhdr10-opt / no-idr-recovery-sei / analysis-reuse-level=5 / scale-factor=0 / refine-intra=0 / refine-inter=0 / refine-mv=0 / no-limit-sao / ctu-info=0 / no-lowpass-dct / refine-mv-type=0 / copy-pic=1 / max-ausize-factor=1.0 / no-dynamic-refine / no-single-sei
Default                                  : Yes
Forced                                   : No
Color range                              : Limited
Color primaries                          : BT.709
Transfer characteristics                 : BT.709
Matrix coefficients                      : BT.709

Audio
ID                                       : 2
Format                                   : AC-3
Format/Info                              : Audio Coding 3
Commercial name                          : Dolby Digital
Codec ID                                 : A_AC3
Duration                                 : 2 h 19 min
Bit rate mode                            : Constant
Bit rate                                 : 640 kb/s
Channel(s)                               : 6 channels
Channel layout                           : L R C LFE Ls Rs
Sampling rate                            : 48.0 kHz
Frame rate                               : 31.250 FPS (1536 SPF)
Compression mode                         : Lossy
Delay relative to video                  : -5 ms
Stream size                              : 637 MiB (36%)
Title                                    : Surround
Language                                 : Hindi
Service kind                             : Complete Main
Default                                  : Yes
Forced                                   : No










YouTube Video:   
Category:Movies
Language:Hindi  Hindi
Total Size:1.72 GB
Info Hash:BB588BE25586C489F670776C60AF04AF22C40EA7
Added By:trueHD
Date Added:2019-10-10 22:08:39
Torrent Status:Torrent Verified by Prom3th3uS Super Administrator on 10th October, 2019


Ratings:Not Yet Rated (Log in to rate it)


Tracker:
udp://tracker.coppersurfer.tk:6969/announce

This Torrent also has backup trackers
URLSeedersLeechersCompleted
udp://tracker.coppersurfer.tk:6969/announce131398
udp://bt.firebit.co.uk:6969/announce140178
udp://open.demonii.si:1337/announce101153
udp://9.rarbg.com:2710/announce1106
udp://open.stealth.si:80/announce000
udp://tracker.pirateparty.gr:6969/announce131398
udp://tracker.cyberia.is:6969/announce80118
udp://tracker.torrent.eu.org:451/announce91118
udp://denis.stalker.upeer.me:6969/announce101121
udp://explodie.org:6969/announce9086
udp://9.rarbg.me:2790/announce1106
udp://tracker.opentrackr.org:1337/announce122187
udp://tracker.openbittorrent.com:80/announce300
udp://exodus.desync.com:6969/announce10192
udp://tracker.internetwarriors.net:13378185


File List: 





Comments
No comments still posted